#TITLE:Appears;
#SUBTITLE:Armin van Buuren sunset dub-vocal mix;
#ARTIST:浜崎あゆみ;
#TITLETRANSLIT:;
#SUBTITLETRANSLIT:;
#ARTISTTRANSLIT:Ayumi Hamasaki;
#CREDIT:;
#BANNER:appears-banner.png;
#BACKGROUND:appears-bg.png;
#LYRICSPATH:;
#CDTITLE:cdtitle.png;
#MUSIC:Ayumi Hamasaki - Ayu Trance 2 - 14 - Appears (Armin van Buuren Sunset dub-vocal mix).mp3;
#OFFSET:-11.600;
#SAMPLESTART:49.400;
#SAMPLELENGTH:12.000;
#SELECTABLE:YES;
#BPMS:0.000=140.000;
#STOPS:;
#BGCHANGES:;
// cache tags:
#FIRSTBEAT:1.500;
#LASTBEAT:744.000;
#SONGFILENAME:Songs/SS Ayu Style -Mini Pack-/Appears (Armin van Buuren Sunset dub-vocal mix)/Appears (Armin van Buuren Sunset dub-vocal mix).sm;
#HASMUSIC:1;
#HASBANNER:1;
#MUSICLENGTH:330.866;
// end cache tags

//---------------dance-single - ----------------
#NOTES:
     dance-single:
     :
     Hard:
     10:
     0.731,0.928,0.127,0.248,0.697,1569.000,42.000,82.000,0.000,0.000:
0000
0000
0000
0000
0000
0000
0100
1000
0100
1000
0001
0000
0100
0000
0000
0000
,
0010
0000
0010
0000
1000
0000
0001
1000
0001
0000
1000
0000
0100
0000
1100
0000
,
0000
0000
0001
0100
0001
0000
0100
0000
0000
0000
0010
1000
0010
0000
1000
0000
,
0100
0000
0100
0000
1000
0000
0001
0000
0100
0000
0001
0100
0001
0000
0100
0000
,
0010
0010
1000
0100
1000
0001
1000
2200
,
0000
0000
0300
3000
0000
0000
0001
0010
0001
0000
0010
0000
0100
0000
1000
0000
,
0000
0000
0001
0100
0001
0000
0100
0000
0000
0000
0010
1000
0010
0000
1000
0000
,
0001
0000
0001
0000
0010
0000
0100
0000
0000
0000
1000
0001
1000
0000
0100
0000
,
0010
0000
0010
0000
0001
0000
0100
0000
0000
0010
0000
0000
0002
2000
0000
0000
,
0000
0000
0000
0003
3000
0000
1100
0000
0000
0001
0000
0000
0010
0000
0010
0000
,
0000
0100
0000
0000
0100
0000
1000
0000
0000
0001
0000
0000
0001
0000
0100
0000
,
0000
0000
0010
1000
0010
0000
0100
0000
0000
0000
0001
0000
0010
0001
0010
0000
,
0100
0000
1000
0000
1000
0000
0001
0000
0000
0100
0000
0000
0010
0000
1000
0000
,
0000
0000
0100
0000
0000
0000
1000
0001
1000
0000
0100
0000
0010
0000
0001
1000
,
0001
0000
1000
0000
0010
0000
0100
0001
0100
0000
0010
0000
1000
0000
0100
0010
,
0001
1000
0100
0010
0010
0010
0001
0001
,
1000
0000
1000
0000
0100
0000
1000
0001
1000
0001
1000
0001
1000
0001
1000
0001
,
1000
0001
1000
0001
1000
0001
1000
0000
0010
0000
0100
0000
0001
0000
1000
0000
,
0100
0010
0000
0010
0001
0000
0100
0000
0010
1000
0000
0100
1000
0000
0001
0000
,
0010
0100
0000
1000
0001
0000
0100
0000
0010
1000
0000
1000
0100
0000
0010
0000
,
0001
0100
0000
0010
1000
0000
0100
0000
0010
0001
0000
0100
0010
0000
1000
0000
,
0100
1000
0000
0100
1000
0000
0001
0000
0100
0001
0000
0100
0001
0000
0010
0000
,
0001
0010
0000
0001
0010
0000
0100
0000
1000
0100
0000
1000
0100
0000
1000
0000
,
0001
1000
0000
0001
1000
0000
0001
0000
0100
0010
0000
0100
0001
0000
0100
0000
,
0010
1000
0000
0001
1000
0000
0001
1000
0001
1000
0001
1000
0001
1000
0001
1000
,
0001
1000
0001
1000
0001
1000
0100
0000
1000
0000
0001
1000
0100
1000
0100
0000
,
0000
0000
0010
1000
0010
0000
1000
0000
0000
0000
0001
0100
0001
0000
0100
0000
,
0100
0000
0010
0000
1000
0000
0001
0000
0000
0000
0010
0001
0010
0000
0100
0000
,
1000
1000
0001
0100
0010
0010
1000
2200
,
0000
0000
0000
0000
3300
0000
0001
0010
0001
0000
0010
0000
0100
0000
1000
0000
,
0000
0000
0001
0100
0001
0000
0100
0000
0000
0000
0010
1000
0010
0000
1000
0000
,
1000
0000
1000
0000
0001
0000
0100
0000
0000
0000
0001
0010
0001
0000
0010
0000
,
0100
0000
0100
0000
1000
0000
1001
0000
0000
1100
0000
0000
0202
0000
0000
0000
,
0000
0000
0000
0003
0300
0000
0010
0000
0000
0010
0000
0000
1000
0000
1000
0000
,
0000
0100
0000
0000
0100
0000
0001
0000
0000
0001
0000
0000
0001
0000
1000
0000
,
0000
0000
1100
0000
1010
0000
0100
0000
0000
0000
0001
0000
0010
0001
0010
0000
,
0100
0000
0100
0000
1000
0000
0001
0000
0000
0100
0000
0000
0010
0000
2000
0000
,
0000
0000
3000
0000
0000
0000
0002
0000
0000
1000
0000
0003
1000
0000
0100
0000
,
0000
0100
0000
0000
0010
0000
0010
0000
0000
0001
0000
0000
1000
0000
0001
0000
,
0000
1001
0000
0000
1100
0000
2002
0000
0000
0000
3003
0000
0000
0000
1100
0000
,
0000
0001
0000
0000
0100
0000
0020
0000
0000
0000
0030
0000
1000
0000
0002
0000
,
0000
0000
0000
0000
0000
0003
0010
0000
0100
1000
0100
0010
0001
0100
0010
0000
,
1000
0001
0000
1000
0100
0000
1000
0000
0100
1000
0000
0100
1000
0000
0001
0000
,
0010
0001
0000
0010
0001
0000
1000
0000
0001
1000
0000
0001
1000
0000
0001
0000
,
1000
0100
0000
1000
0100
0000
1000
0000
0001
0100
0000
0001
0100
0000
0010
0000
,
1000
0010
0000
1000
0010
0000
1000
0000
0001
0010
0000
0001
0010
0000
0100
0000
,
1000
0001
0000
1000
0001
0000
1000
0000
0100
1000
0000
0100
1000
0000
0001
0000
,
0100
0001
0000
0100
0001
0000
0010
0000
0001
0010
0000
0001
0010
0000
0001
0000
,
1000
0001
0000
1000
0001
0000
1000
0000
0010
1000
0000
0010
1000
0000
0001
0000
,
0010
0000
0200
0000
0000
0000
0000
2300
,
0000
0000
0001
0000
0001
0000
0000
0000
3100
0000
0000
0000
0010
0001
0010
0000
,
0200
1000
1300
0001
0000
0100
0010
0000
,
1001
0000
0000
0000
1100
0000
0000
0000
0002
0000
0000
0003
0020
0000
0100
0000
,
0100
0030
0000
0000
0000
0002
2000
0000
0000
0000
0000
0000
0000
3003
0100
0000
,
0000
0020
1000
0000
1030
0000
0000
0002
,
0000
0100
0000
0003
0100
0000
0010
0000
0000
0000
1000
0000
0001
0000
0200
0000
,
0000
0000
0310
0000
0000
0000
1000
0001
1000
0000
0200
0000
0010
0000
0310
0000
,
0000
1001
0000
0000
2200
0000
0000
0000
0000
3300
0000
0000
0001
0100
0002
0000
,
0000
0100
0003
0000
0100
0000
0010
0000
0000
0000
0000
0000
0001
1000
0002
0000
,
0000
1003
0000
0000
1000
0000
0100
0000
0000
0000
0000
0000
0010
0002
0010
0000
,
0000
0013
0000
0000
0100
0000
1000
0000
0000
0000
0000
0000
0001
0100
0001
0000
,
0000
0100
0000
0000
0100
0000
0010
0000
0000
0000
0000
0000
0001
1000
0001
0000
,
0000
1000
0000
0000
1000
0000
0100
0000
0000
0000
0000
0000
1000
0002
1000
0000
,
1000
0003
1000
0000
0100
0000
0010
0000
0000
0000
0001
0000
1000
0000
0020
0000
,
0000
0000
0000
0000
0000
0000
0030
0100
0000
0000
0001
0000
1000
0000
0100
1000
,
0100
0000
1000
0001
1000
0000
0100
0000
1000
0001
0000
1000
0100
0000
1000
0000
,
0001
1000
0000
0100
1000
0000
0001
0000
1000
0100
0000
1000
0001
0000
1000
0000
,
0100
1000
0000
0001
1000
0000
0010
0000
1000
0001
0000
1000
0010
0000
1000
0000
,
0001
1000
0000
0010
1000
0000
0001
0000
1000
0100
0000
1000
0001
0000
1000
0000
,
0100
1000
0000
0001
1000
0000
0010
0000
1000
0001
0000
1000
0100
0000
1000
0000
,
0001
1000
0000
0010
1000
0000
0001
0000
1000
0100
0000
1000
0001
0000
1000
0000
,
0010
1000
0000
0100
1000
0000
0001
0000
1000
0010
0000
1000
0100
0000
1000
0000
,
0001
1000
0000
0100
1000
0000
0001
0000
1000
0010
0000
1000
0100
0000
1000
0000
,
0001
1000
0000
0010
1000
0000
0100
0000
1000
0001
0000
1000
0010
0000
1000
0000
,
0001
0010
0000
0001
1000
0000
0001
0000
0100
0001
0000
1000
0000
0001
0010
0000
,
0001
1000
0000
0001
0100
0000
0001
0000
1000
0001
0000
0010
0001
0000
1000
0000
,
0001
0100
0000
0001
1000
0000
0001
0000
0010
0001
0000
1000
0001
0000
0100
0000
,
0001
1000
0000
0001
0010
0000
0001
0000
1000
0001
0000
0100
0001
0000
1000
0000
,
0001
0010
0000
0001
1000
0000
0001
0000
0100
0001
0000
1000
0001
0000
0010
0000
,
0001
1000
0000
0001
0100
0000
0001
0000
1000
0001
0000
0010
0001
0000
1000
0000
,
0001
0100
0000
0001
1000
0000
0100
0000
1000
0001
0000
0100
0010
0000
1000
0000
,
0100
0010
0000
0001
0100
0000
0010
0000
1000
0100
0000
1000
0001
0000
1000
0000
,
0100
1000
0000
0001
1000
0000
0100
0000
1000
0001
0000
1000
0010
0000
1000
0000
,
0100
1000
0000
0001
1000
0000
0010
0000
1000
0100
0000
1000
0001
0000
1000
0000
,
0100
1000
0000
0001
1000
0000
0010
0000
1000
0100
0000
1000
0001
0000
0100
0000
,
0001
0100
0000
0001
0100
0000
0010
0000
1000
0010
0000
1000
0010
0000
1000
0000
,
0001
0100
0000
0001
0010
0000
0100
0000
0001
0100
0000
0001
0010
0000
0100
0000
,
1000
0001
0000
1000
0100
0000
1000
0000
0001
0100
0000
0001
0100
0000
0010
0000
,
0100
0010
0000
0100
0010
0000
0100
0010
0100
0010
0100
0010
0100
0010
0100
0010
,
0100
0010
0100
0010
0100
0000
2002
0000
0000
0000
3003
0000
0000
0000
0200
0000
,
0000
0000
1000
0000
1000
0300
0000
0000
0001
0000
0000
0000
0010
0001
0010
0000
,
0100
1000
1000
0001
0000
0001
1001
0000
,
1100
0000
0000
0000
0011
0000
0000
0000
1100
0000
0000
0000
0010
1000
0010
0000
,
2000
0000
0000
0000
0000
3000
0002
0000
0000
0000
0000
0000
0000
0000
0100
0000
,
0000
0000
0100
0000
1000
0000
0000
0003
0010
0000
0000
0000
0001
1000
0002
0000
,
0000
1003
0000
0000
1000
0000
0100
0000
0000
0000
0010
0000
0010
0000
0001
0000
,
0000
0000
1000
0000
0000
0000
0001
1000
0001
0000
1000
0000
1000
0000
1000
0000
,
0000
0001
0000
0000
0202
0000
0000
0000
0000
0303
0000
0000
0001
1000
0002
0000
,
0000
1003
0000
0000
1000
0000
0100
0000
0000
0000
0000
0000
0010
0002
0010
0000
,
0003
0010
0000
0000
0001
0000
1000
0000
0000
0000
0000
0000
0100
1000
0100
0000
,
0000
1000
0000
0000
1000
0000
0001
0000
0000
0000
0000
0000
0100
0001
0100
0000
,
0000
0001
0000
0000
0001
0000
1000
0000
0000
0000
0000
0000
0100
1000
0100
0000
,
0000
1000
0000
0000
1000
0000
0001
0000
0000
0000
0000
0000
0100
0001
0100
0000
,
0002
0000
0100
0003
0100
0000
0101
0000
0000
0000
0010
0000
1000
0000
0200
0000
,
0000
0000
0310
0000
0000
0000
0001
0010
0001
0010
0001
0010
0001
0010
0001
0010
,
0001
0010
0001
0010
0001
0010
0001
0000
1000
0000
0100
0000
1000
0000
0001
0000
,
0100
0000
0010
0000
1000
0000
0001
1000
0001
1000
0200
0000
1000
0000
1300
0000
,
0001
0000
0100
0000
0010
0000
0100
0001
0100
0001
0100
0000
0010
0000
0010
0000
,
1000
0000
0001
0000
1000
0000
0100
1000
0100
1000
0100
0000
1000
0000
1000
0000
,
0001
0000
0100
0000
0010
0000
0100
0001
0100
0001
0100
0000
0010
0000
0010
0000
,
1000
0000
0001
0000
1000
0000
0100
1000
0100
1000
0100
0000
1000
0000
1000
0000
,
0001
0000
0100
0000
0010
0000
0100
0001
0100
0001
0100
0000
0010
0000
1000
0000
,
1000
0000
0001
0000
1000
0000
0001
1000
0001
1000
0001
1000
0001
1000
0001
1000
,
0001
1000
0001
1000
0001
1000
0100
0000
1000
0000
0001
0000
0100
0000
0010
0000
,
0000
1001
0000
0000
1100
0000
0002
0000
0000
0010
0000
0000
0013
0000
0100
0000
,
0000
0000
1000
0000
0001
0000
0100
0000
0000
0000
0000
0000
1000
0001
1000
0000
,
0000
1000
0000
0000
0100
0000
0010
0000
0000
0010
0000
0000
0001
0000
0202
0000
,
0000
0000
0303
0000
0000
0000
0020
0000
0000
1000
0000
0000
2030
0000
0001
0000
,
0000
3002
0000
0000
0203
0000
0010
0300
0000
1000
0000
0000
1001
0000
2100
0000
,
0000
3002
0000
0000
0010
0000
0010
0000
0003
0000
0000
0000
0000
0001
1000
0000
,
0000
1100
0000
0002
0000
0000
0100
0000
0000
0003
0100
0000
0010
0000
2000
0000
,
0000
0000
0000
0000
0000
0000
0000
0000
0000
0000
0000
3000
0000
0000
0001
0000
,
0200
0000
0000
0000
0320
0000
0000
0000
0000
0000
0000
0000
0000
0030
2000
0000
,
0000
3000
0001
0000
0200
0000
0000
0300
0010
0000
0000
0000
1000
0001
1000
0000
,
0100
1000
1001
1100
0000
0001
0200
0000
,
0320
0000
0000
0030
1000
0000
0000
0000
0002
0000
0000
0000
0100
0000
0103
0000
,
0020
0000
0000
0000
0000
2030
0000
0000
0000
0000
0000
0000
0000
0000
3002
0000
,
0000
0003
0100
0000
0020
0000
0000
2030
0000
0000
0000
0000
0000
0000
0100
0000
,
0000
0100
3000
0000
0020
0000
0002
0000
0000
0033
0000
0200
0000
0000
0020
0000
,
0000
0330
0000
1001
1001
0100
0010
0001
,
0000
0100
0000
0000
0001
0000
1000
0000
0000
0000
0100
0000
1000
0100
2000
0000
,
0000
3010
0000
0000
0010
0000
0200
0000
0000
0300
0001
0000
1000
0001
2000
0000
,
0000
3100
0000
0000
0100
0000
0010
0000
0000
0000
0001
0000
0100
0001
0100
0000
,
0000
0010
0000
0000
0010
0000
1000
0000
0000
0000
0001
0000
1000
0100
2000
0000
,
0000
3001
0000
0000
0001
0000
0100
0000
0000
0000
0010
0000
1000
0001
1000
0000
,
0000
0100
0000
0000
0100
0000
0010
0000
0001
0000
0010
0000
0001
0010
0002
0000
,
0010
0013
0100
1000
0001
0001
0100
0010
,
0100
0000
0001
0000
0100
0000
0001
0100
0001
0100
0001
0100
0001
0100
0001
0100
,
0001
0100
0001
0100
0001
0100
0001
0000
0100
0000
0010
0000
0200
0000
0001
0300
,
0001
0000
1000
0000
0100
0000
0001
0000
1000
0100
0000
0010
0001
0000
0100
0000
,
0010
1000
0000
0100
0010
0000
0001
0000
0100
0001
0000
0100
0001
0000
1000
0000
,
0001
1000
0000
0001
1000
0000
0100
0000
1000
0100
0000
1000
0100
0000
1000
0000
,
0010
1000
0000
0010
1000
0000
0001
0000
0010
0001
0000
0010
0001
0000
0010
0100
,
0000
1000
0100
0000
1000
0000
0001
0000
1000
0001
0000
1000
0001
0000
1000
0000
,
0001
0100
0000
0001
0100
0000
0010
0000
1000
0010
0000
1000
0010
0000
0001
0000
,
1000
0100
0000
0010
0001
0000
0010
0001
0100
0001
0000
0100
0001
0000
0100
0000
,
0010
1000
0000
0010
1000
0000
0100
0000
1000
0001
0000
0010
0100
0000
1000
0000
,
0001
0100
0000
0010
1000
0000
0100
0000
0010
0001
0000
0100
0010
0000
1000
0000
,
0100
0010
0000
0001
0100
0000
0010
0000
1000
0100
0000
1000
0010
0000
1000
0000
,
0100
0010
0000
0001
0100
0000
0001
0000
0100
0010
0000
1000
0100
0000
1000
0000
,
0001
1000
0000
0100
1000
0000
0001
0000
0100
0010
0000
1000
0100
0000
1000
0000
,
0001
0010
0000
0001
0010
0000
0100
0000
1000
0010
0000
1000
0010
0000
1000
0000
,
0100
1000
0000
0001
1000
0000
0100
0000
1000
0001
0000
0100
0010
0000
1000
0000
,
0100
0010
0000
0001
0100
0000
0001
0100
0001
0100
0010
0100
0001
0100
0010
0100
,
0001
0100
0010
0100
0001
0100
0010
0000
0100
0000
0001
0000
1000
0000
1000
0000
,
0100
0000
0010
0000
0001
0000
0010
0001
0010
0000
0010
0000
0100
0000
1000
0000
,
0001
0000
0001
0000
0100
0000
0101
0000
0001
0100
0001
0000
0100
0000
0100
0000
,
0010
0000
1000
0000
0001
0000
1000
0001
1000
0001
1000
0000
0100
0000
0100
0000
,
1000
0000
0001
0000
1000
0000
0001
1000
0001
1000
0100
0000
0100
0000
1000
0000
,
0010
0000
1000
0000
0010
0000
1000
0010
1000
0010
1000
0000
0010
0000
1000
0000
,
0001
0000
0100
0000
0001
0000
0100
0001
0100
0001
0100
0000
0100
0000
0010
0000
,
1000
0100
0010
1001
1001
0110
2020
0000
,
0000
0000
0000
0000
0000
3030
0010
0100
0010
0100
0010
0000
0100
0000
0100
0000
,
1002
0000
1000
0000
1003
0000
0001
1000
0001
1000
0100
0000
0010
0000
0010
0000
,
0001
0000
0100
0000
0010
0000
1000
0100
1000
0100
1000
0000
0001
0000
0100
0000
,
0100
0000
0010
0000
1000
0000
0100
1000
0100
1000
0001
0000
0001
0000
0100
0000
,
0010
0000
1000
0000
0100
0000
1000
0100
1000
0001
1000
0000
0010
0000
0100
0000
,
0100
0000
0001
0000
0010
0000
0100
1000
0100
1000
0001
0000
0100
0000
0010
0000
,
0010
0000
1000
0000
0001
0000
0010
0001
0010
0001
0010
0000
0100
0000
1000
0000
,
0002
0000
0000
0000
0000
0003
0100
1000
0100
1000
0100
1000
0100
1000
0100
1000
,
0100
1000
0100
1000
0100
1000
0001
0000
0000
0100
1000
0000
0010
0100
0010
0000
,
0010
1000
0000
0000
1000
0000
0001
1000
0001
1000
0100
0000
0010
0000
0010
0000
,
0001
0000
0100
0000
0010
0000
1000
0001
1000
0001
1000
0000
0100
0000
1000
0000
,
0001
0000
0100
0000
0010
0000
1000
0010
1000
0010
1000
0000
0001
0000
0100
0000
,
0010
0000
1000
0000
0100
0000
1000
0100
1000
0100
1000
0000
0001
0000
0100
0000
,
0010
0000
1000
0000
0001
0000
0010
0001
0010
0001
0010
0000
0100
0000
1000
0000
,
0001
0000
0100
0000
0010
0000
1000
0010
1000
0010
1000
0000
0001
0000
0100
0000
,
0010
0000
1000
0000
0100
0000
1000
0100
1000
0100
1000
0000
0001
0000
0100
0000
,
0010
0000
1000
0000
0001
0000
0010
0001
0010
0001
0010
0000
0100
0000
1000
0000
,
0011
0000
1010
0000
0100
0000
1000
0100
1000
0100
1000
0000
0001
0000
0100
0000
,
0010
0000
1000
0000
0001
0000
1000
0001
1000
0001
1000
0000
0100
0000
0010
0000
,
0001
0000
0100
0000
0010
0000
1000
0010
1000
0010
1000
0000
0001
0000
0100
0000
,
0010
0000
1000
0000
0100
0000
0010
0001
0010
0001
0010
0000
0100
0000
1000
0000
,
0001
0000
0100
0000
0001
0000
0100
0001
0100
0001
0100
0001
0100
0001
0100
0001
,
0100
0010
0100
0001
0100
0001
0100
0010
0100
0001
0100
0001
0100
0010
0100
0001
,
0100
0001
0100
0010
0100
0001
0100
0001
0100
0010
0100
0001
0100
0010
0100
0001
,
0100
0000
0000
0000
;

//---------------dance-single - ----------------
#NOTES:
     dance-single:
     :
     Easy:
     1:
     0.000,0.000,0.000,0.000,0.000,0.000,0.000,0.000,0.000,0.000:
0000
0000
0000
0000
;

//---------------dance-single - ----------------
#NOTES:
     dance-single:
     :
     Medium:
     1:
     0.000,0.000,0.000,0.000,0.000,0.000,0.000,0.000,0.000,0.000:
0000
0000
0000
0000
;

//---------------dance-single - ----------------
#NOTES:
     dance-single:
     :
     Beginner:
     1:
     0.000,0.000,0.000,0.000,0.000,0.000,0.000,0.000,0.000,0.000:
0000
0000
0000
0000
;
